No Reservations (2007) + Extras (1080p BluRay x265 HEVC 10bit AAC...

  • Category Movies
  • Type HEVC/x265
  • Language English
  • Total size 3.3 GB
  • Uploaded By QxR
  • Downloads 145
  • Last checked 1 hour ago
  • Date uploaded 20 hours ago
  • Seeders 21
  • Leechers 21

No Reservations

ComedyDramaRomance

Kate is a terrific chef at a Manhattan restaurant, sent to therapy by the restaurant owner because she is cold, unyielding, rule-bound, and a pain in the neck. Kate's world is flipped over when her only sister dies and her ten-year-old niece, Zoe, comes to live with her.

Infohash : 7FAFA9FB534B9759E5ECD39276B1DF6578F05138



http://www.imdb.com/title/tt0481141/





Media Information

Code:

General
Format : Matroska
Format version : Version 4 / Version 2
File size : 2.55 GiB
Duration : 1 h 44 min
Overall bit rate : 3 501 kb/s
Movie name : No Reservations 2007 (1080p BluRay x265 clearFoster)
Encoded date : UTC 2018-12-02 13:06:48
Writing application : mkvmerge v29.0.0 ('Like It Or Not') 64-bit
Writing library : libebml v1.3.6 + libmatroska v1.4.9
Cover : Yes
Attachments : cover.jpg
Writing frontend : cFstr

Video
ID : 1
Format : HEVC
Format/Info : High Efficiency Video Coding
Format profile : Main [email protected]@Main
Codec ID : V_MPEGH/ISO/HEVC
Duration : 1 h 44 min
Bit rate : 3 037 kb/s
Width : 1 920 pixels
Height : 800 pixels
Display aspect ratio : 2.40:1
Frame rate mode : Constant
Frame rate : 23.976 (24000/1001) FPS
Color space : YUV
Chroma subsampling : 4:2:0
Bit depth : 10 bits
Bits/(Pixel*Frame) : 0.082
Stream size : 2.21 GiB (87%)
Writing library : x265 2.9+8-27d8424c799d:[Windows][MSVC 1915][64 bit] 10bit
Encoding settings : cpuid=1064959 / frame-threads=2 / numa-pools=6 / wpp / no-pmode / no-pme / no-psnr / no-ssim / log-level=2 / input-csp=1 / input-res=1920x800 / interlace=0 / total-frames=150065 / level-idc=0 / high-tier=1 / uhd-bd=0 / ref=5 / no-allow-non-conformance / no-repeat-headers / annexb / no-aud / no-hrd / info / hash=0 / no-temporal-layers / open-gop / min-keyint=23 / keyint=400 / gop-lookahead=0 / bframes=8 / b-adapt=2 / b-pyramid / bframe-bias=0 / rc-lookahead=100 / lookahead-slices=5 / scenecut=40 / radl=0 / no-intra-refresh / ctu=32 / min-cu-size=8 / no-rect / no-amp / max-tu-size=16 / tu-inter-depth=1 / tu-intra-depth=1 / limit-tu=0 / rdoq-level=2 / dynamic-rd=0.00 / no-ssim-rd / signhide / no-tskip / nr-intra=0 / nr-inter=0 / no-constrained-intra / no-strong-intra-smoothing / max-merge=2 / limit-refs=3 / limit-modes / me=3 / subme=5 / merange=57 / temporal-mvp / weightp / weightb / no-analyze-src-pics / deblock=-3:0 / no-sao / no-sao-non-deblock / rd=4 / no-early-skip / rskip / no-fast-intra / no-tskip-fast / no-cu-lossless / b-intra / no-splitrd-skip / rdpenalty=0 / psy-rd=2.00 / psy-rdoq=1.10 / no-rd-refine / no-lossless / cbqpoffs=0 / crqpoffs=0 / rc=crf / crf=22.0 / qcomp=0.60 / qpstep=4 / stats-write=0 / stats-read=0 / ipratio=1.40 / pbratio=1.30 / aq-mode=3 / aq-strength=1.00 / cutree / zone-count=0 / no-strict-cbr / qg-size=32 / no-rc-grain / qpmax=69 / qpmin=0 / no-const-vbv / sar=0 / overscan=0 / videoformat=5 / range=0 / colorprim=1 / transfer=1 / colormatrix=1 / chromaloc=0 / display-window=0 / max-cll=0,0 / min-luma=0 / max-luma=1023 / log2-max-poc-lsb=8 / vui-timing-info / vui-hrd-info / slices=1 / no-opt-qp-pps / no-opt-ref-list-length-pps / no-multi-pass-opt-rps / scenecut-bias=0.05 / no-opt-cu-delta-qp / aq-motion / no-hdr / no-hdr-opt / no-dhdr10-opt / no-idr-recovery-sei / analysis-reuse-level=10 / scale-factor=0 / refine-intra=0 / refine-inter=0 / refine-mv=0 / no-limit-sao / ctu-info=0 / no-lowpass-dct / refine-mv-type=0 / copy-pic=1 / max-ausize-factor=1.0 / no-dynamic-refine / no-single-sei
Default : Yes
Forced : No
Color range : Limited
Color primaries : BT.709
Transfer characteristics : BT.709
Matrix coefficients : BT.709

Audio
ID : 2
Format : AAC
Format/Info : Advanced Audio Codec
Format profile : LC
Codec ID : A_AAC
Duration : 1 h 44 min
Bit rate : 423 kb/s
Channel(s) : 6 channels
Channel positions : Front: L C R, Side: L R, LFE
Sampling rate : 48.0 kHz
Frame rate : 46.875 FPS (1024 spf)
Compression mode : Lossy
Delay relative to video : 20 ms
Stream size : 315 MiB (12%)
Language : English
Default : Yes
Forced : No

Subtitle #1
ID : 3
Format : PGS
Muxing mode : zlib
Codec ID : S_HDMV/PGS
Codec ID/Info : Picture based subtitle format used on BDs/HD-DVDs
Duration : 1 h 43 min
Bit rate : 30.4 kb/s
Count of elements : 2184
Stream size : 22.5 MiB (1%)
Language : English
Default : Yes
Forced : No

Subtitle #2
ID : 4
Format : PGS
Muxing mode : zlib
Codec ID : S_HDMV/PGS
Codec ID/Info : Picture based subtitle format used on BDs/HD-DVDs
Duration : 1 h 43 min
Bit rate : 21.1 kb/s
Count of elements : 2152
Stream size : 15.6 MiB (1%)
Language : French
Default : No
Forced : No

Subtitle #3
ID : 5
Format : PGS
Muxing mode : zlib
Codec ID : S_HDMV/PGS
Codec ID/Info : Picture based subtitle format used on BDs/HD-DVDs
Duration : 1 h 39 min
Bit rate : 35.5 kb/s
Count of elements : 2172
Stream size : 25.3 MiB (1%)
Language : Russian
Default : No
Forced : No

Menu
00:00:00.000 : en:Master Chef
00:06:09.202 : en:A Lot of Rules
00:10:31.964 : en:Tragedy
00:15:03.736 : en:Zoe's New Home
00:19:37.843 : en:Singing Sous-Chef
00:24:45.484 : en:Wake-Up Call
00:29:40.111 : en:Don't Try So Hard
00:34:06.878 : en:Your Half Is Bigger
00:37:52.770 : en:Thought You'd Never Ask
00:41:38.829 : en:Hold My Pasta
00:47:39.356 : en:You Forget Me
00:53:21.531 : en:Zoe's Wish
00:57:55.805 : en:Pizza for Three
01:01:16.673 : en:Dessert People
01:04:28.698 : en:You Don't Want Me
01:08:22.932 : en:Late Night Tv
01:13:53.929 : en:A Day Off
01:17:35.484 : en:No Secrets Anymore
01:23:08.984 : en:Not Who You Are
01:26:10.832 : en:Missing Nick
01:30:35.096 : en:Missing Zoe
01:33:36.611 : en:Rare Steak
01:36:26.447 : en:Triangle Trade
01:40:27.688 : en:End Credits

Source Information

Code:

Release:
BD50


Note From QxR:

Quote:

Whilst we are happy for our releases to be re-posted on a platform we aren't on, please do so in an 'as-is' format. We ask that you do not create a new torrent, include all descriptions you see above including the QxR logo, tags, notes and screenshots. If you'd like to become a permanent poster on a website we don't post to, feel free to get in contact with a QxR member.


Files:

No Reservations (2007) + Extras (1080p BluRay x265 HEVC 10bit AAC 5.1 Natty) Featurettes
  • Emeril Live.mkv (541.9 MB)
  • Unwrapped.mkv (201.0 MB)
  • No Reservations (2007) (1080p BluRay x265 Natty).mkv (2.6 GB)

There are currently no comments. Feel free to leave one :)

Code:

  • udp://tracker.coppersurfer.tk:6969/announce
  • udp://tracker.opentrackr.org:1337/announce
  • udp://tracker.zer0day.to:1337/announce
  • udp://tracker.torrent.eu.org:451/announce
  • udp://tracker.leechers-paradise.org:6969/announce
  • udp://p4p.arenabg.com:1337/announce
  • udp://tracker.internetwarriors.net:1337/announce
SitemapSully (2016) | China | USA | Lukas Knopf