5 Weddings.2018.Hindi.720p.Pre-DVDRip.X264.AAC.LLG

  • Category Movies
  • Type h.264/x264
  • Language English
  • Total size 645.1 MB
  • Uploaded By LifeLongg
  • Downloads 180
  • Last checked 14 minutes ago
  • Date uploaded 22 hours ago
  • Seeders 7
  • Leechers 17

5 Weddings

DramaComedyRomance

An American journalist travels to India to cover Bollywood weddings, only to uncover a mosaic of cultural clashes, transgender tangles and lost loves with her travels culminating at a destination where the only journey is the one within.

Infohash : AFC5012F572EE0B932BACB5945BB61C62E720C70



******************************Thumbnail:**********************



******************************Screenshots:********************

Screenshot 1

Screenshot 2

Screenshot 3

Screenshot 4

Screenshot 5

Screenshot 6

Screenshot 7

Screenshot 8

Screensho 9

*****************************Poster:***********************




************************************************************

5 Weddings.2018.Hindi.720p.Pre-DVDRip.X264.AAC.LLG.mp4
Format : MPEG-4
Format profile : Base Media
Codec ID : isom (isom/iso2/avc1/mp41)
File size : 637 MiB
Duration : 1 h 28 min
Overall bit rate mode : Variable
Overall bit rate : 1 009 kb/s


Video
ID : 1
Format : AVC
Format/Info : Advanced Video Codec
Format profile : [email protected]
Format settings : CABAC / 1 Ref Frames
Format settings, CABAC : Yes
Format settings, RefFrames : 1 frame
Codec ID : avc1
Codec ID/Info : Advanced Video Coding
Duration : 1 h 28 min
Bit rate mode : Variable
Bit rate : 876 kb/s
Maximum bit rate : 2 700 kb/s
Width : 1 280 pixels
Height : 544 pixels
Display aspect ratio : 2.35:1
Frame rate mode : Constant
Frame rate : 23.976 (23976/1000) FPS
Color space : YUV
Chroma subsampling : 4:2:0
Bit depth : 8 bits
Scan type : Progressive
Bits/(Pixel*Frame) : 0.052
Stream size : 552 MiB (87%)

Audio
ID : 2
Format : AAC LC
Format/Info : Advanced Audio Codec Low Complexity
Codec ID : mp4a-40-2
Duration : 1 h 28 min
Bit rate mode : Constant
Bit rate : 128 kb/s
Channel(s) : 2 channels
Channel layout : L R
Sampling rate : 44.1 kHz
Frame rate : 43.066 FPS (1024 SPF)
Compression mode : Lossy
Stream size : 81.1 MiB (13%)
Language : Hindi
Default : Yes
Alternate group : 1



**************************************************************

Files:

5 Weddings.2018.Hindi.720p.Pre-DVDRip.X264.AAC.LLG
  • SAMPLE.mp4 (8.5 MB)
  • 5 Weddings.2018.Hindi.720p.Pre-DVDRip.X264.AAC.LLG.mp4 (636.5 MB)

There are currently no comments. Feel free to leave one :)

Code:

  • udp://tracker.openbittorrent.com:80/announce
  • udp://tracker.opentrackr.org:1337/announce
  • udp://tracker.coppersurfer.tk:6969/announce
  • udp://tracker.pirateparty.gr:6969/announce
  • udp://tracker.coppersurfer.tk:6969/announce
  • udp://tracker.leechers-paradise.org:6969/announce
  • udp://eddie4.nl:6969/announce
  • udp://tracker.tiny-vps.com:6969/announce
  • udp://9.rarbg.me:2770/announce
  • udp://9.rarbg.to:2770/announce
  • udp://public.popcorn-tracker.org:6969/announce
  • udp://open.stealth.si:80/announce
  • udp://tracker.vanitycore.co:6969/announce
  • udp://tracker.opentrackr.org:1337/announce
  • udp://bt.firebit.co.uk:6969/announce
SitemapSaisons en cours VOST HD | Mary1413 | TeamViewer v13