An Idiot Abroad | Chris Weitz | Eps37 The Daily Show (2018) - Part 2

Page 16 (2018) Hindi 720p HDRip x264 AAC BabaHD

  • Category Movies
  • Type Bollywood
  • Language Hindi
  • Total size 967.5 MB
  • Uploaded By Movienow7
  • Downloads 890
  • Last checked 11 minutes ago
  • Date uploaded 6 hours ago
  • Seeders 50
  • Leechers 77

Infohash : D8AA62187656C7C600F3C37A4CDFE70753906B77

Page 16 (2018) Hindi 720p HDRip x264 AAC Exclusive BabaHD


BIG4UMOVIES.PW
& BabaHD.Com



BabaHD.Com
General  
Unique ID : 1  
Complete name : Page 16 2018 Hindi 720p HDRip x264.mp4
[b]
Format profile : Base Media
Codec ID : isom (isom/iso2/avc1/mp41)
File size : 967 MiB
Duration : 1 h 44 min
Overall bit rate : 1 290 kb/s
Movie name : BabaHD.Com
Writing application : Lavf57.83.100

Video
ID : 1
Format : AVC
Format/Info : Advanced Video Codec
Format profile : [email protected]
Format settings : CABAC / 5 Ref Frames
Format settings, CABAC : Yes
Format settings, RefFrames : 5 frames
Codec ID : avc1
Codec ID/Info : Advanced Video Coding
Duration : 1 h 44 min
Bit rate : 1 152 kb/s
Width : 1 280 pixels
Height : 540 pixels
Display aspect ratio : 2.40:1
Frame rate mode : Constant
Frame rate : 25.000 FPS
Color space : YUV
Chroma subsampling : 4:2:0
Bit depth : 8 bits
Scan type : Progressive
Bits/(Pixel*Frame) : 0.067
Stream size : 868 MiB (90%)
Writing library : x264

Audio
ID : 2
Format : AAC
Format/Info : Advanced Audio Codec
Format profile : LC
Codec ID : mp4a-40-2
Duration : 1 h 44 min
Bit rate mode : Constant
Bit rate : 128 kb/s
Channel(s) : 2 channels
Channel positions : Front: L R
Sampling rate : 48.0 kHz
Frame rate : 46.875 FPS (1024 SPF)
Compression mode : Lossy
Stream size : 95.8 MiB (10%)
Language : Hindi
Default : Yes





SCREENS







Team BabaHD.Com @Big4UMOVIES.PW[/b]


Files:

  • [BabaHD.Com] - Page 16 2018 Hindi 720p HDRip x264.mp4 (967.5 MB)

There are currently no comments. Feel free to leave one :)

Code:

  • udp://tracker.coppersurfer.tk:6969/announce
  • udp://tracker.ilibr.org:6969/announce
  • udp://tracker.coppersurfer.tk:6969/announce
  • udp://tracker.ilibr.org:6969/announce
  • udp://tracker.ilibr.org:80/announce
  • udp://tracker.opentrackr.org:1337/announce
  • udp://zer0day.to:1337/announce
  • udp://tracker.zer0day.to:1337/announce
  • udp://p4p.arenabg.com:1337/announce
  • udp://p4p.arenabg.ch:1337/announce
  • udp://tracker.leechers-paradise.org:6969/announce
  • udp://explodie.org:6969/announce
  • udp://9.rarbg.to:2710/announce
  • udp://eddie4.nl:6969/announce
  • udp://9.rarbg.to:2770/announce
  • udp://tracker.ilibr.org:80/announce
  • udp://tracker.opentrackr.org:1337/announce
  • udp://zer0day.to:1337/announce
  • udp://tracker.zer0day.to:1337/announce
  • udp://p4p.arenabg.com:1337/announce
  • udp://p4p.arenabg.ch:1337/announce
  • udp://tracker.leechers-paradise.org:6969/announce