Betrayed (2018) 720p HDRip x264 AAC by Full4movies

  • Category Movies
  • Type HD
  • Language English
  • Total size 809.5 MB
  • Uploaded By shmasti
  • Downloads 18
  • Last checked 52 minutes ago
  • Date uploaded 1 day ago
  • Seeders 6
  • Leechers 3

Betrayed

In an effort to control the city the Mayor opens the doors to the Russian Mob. It is not long until he realizes they aren't going to follow his rules. To fix the problem he accepts an offer to set up the Russians and open the door for the Cartel. When the Russians find out they take the Mayors Daughter and then the real games begin.

Infohash : D5C9DCB7401683FC985CCDD33FE4FAB51701FC2E



General
Complete name : Betrayed (2018) 720p HDRip x264 AAC by Full4movies.mkv
Format : Matroska
Format version : Version 4 / Version 2
File size : 809 MiB
Duration : 1 h 37 min
Overall bit rate : 1 157 kb/s
Movie name : www.Full4movies.co
Encoded date : UTC 2018-10-04 16:20:28
Writing application : mkvmerge v8.1.0 ('Psychedelic Postcard') 32bit
Writing library : libebml v1.3.1 + libmatroska v1.4.2

Video
ID : 1
Format : AVC
Format/Info : Advanced Video Codec
Format profile : [email protected]
Format settings, CABAC : Yes
Format settings, RefFrames : 4 frames
Codec ID : V_MPEG4/ISO/AVC
Duration : 1 h 37 min
Bit rate : 1 088 kb/s
Width : 1 280 pixels
Height : 536 pixels
Display aspect ratio : 2.40:1
Frame rate mode : Constant
Frame rate : 23.976 (24000/1001) FPS
Color space : YUV
Chroma subsampling : 4:2:0
Bit depth : 8 bits
Scan type : Progressive
Bits/(Pixel*Frame) : 0.066
Stream size : 752 MiB (93%)
Writing library : x264 core 155 r2901 7d0ff22
Default : Yes
Forced : No
Color range : Limited
Color primaries : BT.709
Transfer characteristics : BT.709
Matrix coefficients : BT.709

Audio
ID : 2
Format : AAC
Format/Info : Advanced Audio Codec
Format profile : LC
Codec ID : A_AAC
Duration : 1 h 37 min
Bit rate : 80.3 kb/s
Channel(s) : 2 channels
Channel positions : Front: L R
Sampling rate : 48.0 kHz
Frame rate : 46.875 FPS (1024 SPF)
Compression mode : Lossy
Delay relative to video : -21 ms
Stream size : 56.2 MiB (7%)
Language : English
Default : Yes
Forced : No

Screen Shoots

Files:

  • Betrayed (2018) 720p HDRip x264 AAC by Full4movies.mkv (809.5 MB)

There are currently no comments. Feel free to leave one :)

Code:

  • udp://tracker.coppersurfer.tk:6969/announce
  • udp://tracker.opentrackr.org:1337/announce
  • udp://9.rarbg.me:2710/announce
  • udp://tracker.torrent.eu.org:451/announce
  • udp://open.stealth.si:80/announce
  • udp://public.popcorn-tracker.org:6969/announce
  • udp://p4p.arenabg.ch:1337/announce
  • udp://tracker.zer0day.to:1337/announce
  • udp://tracker.pirateparty.gr:6969/announce
  • udp://tracker.leechers-paradise.org:6969/announce
  • udp://tracker.tiny-vps.com:6969/announce
  • udp://bt.firebit.co.uk:6969/announce
  • udp://inferno.demonoid.pw:3397/announce
  • udp://shadowshq.yi.org:6969/announce
  • udp://9.rarbg.to:2780/announce
SitemapWatch Movie | KiKi Layne | Resta con me (2018) avi iTALiAN AC3 BDRip XViD DDNCREW avi