The Sound 2017 Movies 720p HDRip x264 AAC ESubs with Sample ☻rDX☻...

  • Category Movies
  • Type HD
  • Language English
  • Total size 784.5 MB
  • Uploaded By nehalpuja
  • Downloads 4
  • Last checked 56 minutes ago
  • Date uploaded 2 days ago
  • Seeders 1
  • Leechers 3

The Sound

ThrillerHorrorMystery

A writer who studies the paranormal believes that low frequency tactile sound is the cause for reported ghost sightings in an abandoned subway station. In an attempt to debunk the sightings, she breaks into the station to record evidence.

Infohash : E34883B316F6722F03DF5F66F2FAC463ECD6F470

The Sound 2017 Movies 720p HDRip x264 AAC ESubs with Sample ☻rDX☻
===============================================================================================

SCREEN SHOTS:



or

http://iphonehosting.eu/2018/9/a/gadget/1.html

File size : 777 MiB
Duration : 1 h 32 min
Overall bit rate : 1 173 kb/s
Movie name : The Sound 2017 Movies 720p HDRip x264 AAC ESubs with Sample ☻rDX☻

Video
ID : 2
Format : AVC
Format/Info : Advanced Video Codec
Format profile : [email protected]
Format settings, CABAC : Yes
Format settings, ReFrames : 2 frames
Format settings, GOP : M=1, N=12
Codec ID : V_MPEG4/ISO/AVC
Duration : 1 h 32 min
Bit rate mode : Constant
Bit rate : 1 110 kb/s
Width : 1 280 pixels
Height : 550 pixels
Display aspect ratio : 2.35:1
Frame rate mode : Constant
Frame rate : 23.976 (24000/1001) FPS
Color space : YUV
Chroma subsampling : 4:2:0
Bit depth : 8 bits
Scan type : Progressive
Bits/(Pixel*Frame) : 0.066
Stream size : 719 MiB (93%)
Title : ☻rDX☻
Default : Yes
Forced : No

Audio
ID : 1
Format : MPEG Audio
Format version : Version 1
Format profile : Layer 3
Mode : Joint stereo
Mode extension : MS Stereo
Codec ID : A_MPEG/L3
Codec ID/Hint : MP3
Duration : 1 h 32 min
Bit rate mode : Constant
Bit rate : 64.0 kb/s
Channel(s) : 2 channels
Sampling rate : 44.1 kHz
Compression mode : Lossy
Stream size : 42.4 MiB (5%)
Title : ☻rDX☻
Default : Yes
Forced : No

Text
ID : 3
Format : UTF-8
Codec ID : S_TEXT/UTF8
Codec ID/Info : UTF-8 Plain Text
Title : ☻rDX☻
Language : English
Default : Yes
Forced : No

http://www.imdb.com/title/tt4669278/

Files:

The Sound 2017 Movies 720p HDRip x264 AAC ESubs with Sample ☻rDX☻
  • Sample ~ The Sound 2017 Movies 720p HDRip x264 AAC ESubs ☻rDX☻.mkv (8.0 MB)
  • The Sound 2017 Movies 720p HDRip x264 AAC ESubs ☻rDX☻.mkv (776.5 MB)

There are currently no comments. Feel free to leave one :)

Code:

  • udp://tracker.coppersurfer.tk:6969/announce
  • udp://tracker.leechers-paradise.org:6969/announce
  • udp://tracker.pirateparty.gr:6969/announce
  • udp://eddie4.nl:6969/announce
  • udp://tracker.zer0day.to:1337/announce
  • udp://9.rarbg.me:2710/announce
  • udp://9.rarbg.to:2710/announce
  • udp://public.popcorn-tracker.org:6969/announce
  • udp://p4p.arenabg.ch:1337/announce
  • udp://tracker.vanitycore.co:6969/announce
  • udp://ipv4.tracker.harry.lu:80/announce
  • udp://tracker.opentrackr.org:1337/announce
  • udp://p4p.arenabg.com:1337/announce
  • udp://shadowshq.yi.org:6969/announce
SitemapEps5 Dark Heart 1 | Read more | riverdale